Shop Vinyl and CDs and complete your Angèle collection. Flou. -------------------------------------------------------------------------------- La loi de Murphy. -------------------------------------------------------------------------------- Angèle - Victime des réseaux 08. You can buy latest album La Thune (CDS) 2018 - Angele. Angèle - Les Matins 09. Insomnies download. Your No.1 source for MP3 instrumental tracks, This title is a cover of Flou as made famous by Angèle, Duration: 03:18 - Preview at: DR6 -0.22 dB -7.51 dB 3:22 04-Tout oublier Download Flou song on Gaana.com and listen Brol Flou song offline. Flou. Télécharger Nrj Holiday 2019 en torrent . Oui ou non download. An icon used to represent a menu that can be toggled by interacting with this icon. Angèle Van Laeken is the daughter of the singer Marka and of the actress Laurence Bibot. 3:16 PREVIEW 12 SONGS, 41 MINUTES. Flou - Angèle MP3, Paroles et clip à écouter et télécharger légalement Angèle – Flou (Live) | Vevo DSCVR ARTISTS TO WATCH 2019 Download mp3 qeshu Posted on September 5, 2019 Angèle – Flou – an exclusive live performance for Vevo DSCVR ARTISTS TO WATCH 2019, an annual series… Music Videos. Vocal Backing Track MP3 $1.99. Macklemore & Patrick Stump of Fall Out Boy).mp3" View credits, reviews, tracks and shop for the 2018 File release of Brol on Discogs. Save my name, email, and website in this browser cookies for the next time I comment. Listen free to Angèle – Brol, la suite (La Thune, Balance ton quoi and more). 3.0M . DR6 -0.22 dB -8.24 dB 3:25 09-Je veux tes yeux These music files do not include lyrics. Report. 19 tracks (64:32). In the same key as the original: Fm. Direct access to the radio page: : Latest titles and artists played on/radio/activ-radio-mp3.html Contributions: 61 translations, 974 thanks received, 8 translation requests fulfilled for 4 members, explained 1 idiom, left 3 comments She was born in Uccle, Brussels-Capital Region. Angèle - Flou (Gregcy Radio Remix) PR 0,5 Like Give Premium. Check out Brol [Explicit] by Angèle on Amazon Music. DR5 -0.22 dB -8.42 dB 3:17 12-Flou 07 Angèle Ta Reine ( Version Orchestrale) ... Angèle - Flou.ogg download. Flou MP3 Song by Ang from the French movie Brol. Here you can buy and download music mp3 Angele. download 1 file . TORRENT download. Same as the original tempo: 92 BPM. Official DR value: DR6, Samplerate: 44100 Hz Same as the original tempo: 113 BPM. DR5 -0.22 dB -8.65 dB 3:33 10-Ta reine Flou - Angèle - MP3 instrumental karaoke. Best free search mp3 and mp4 music songs downloads site Angèle - Flou [CLIP OFFICIEL] | Floux Format: MP3 320 Kbps Vocal Backing Track MP3 $1.99. We would like to show you a description here but the site won’t allow us. History titles awarded on the radio Activ Radio-mp3-192K. Русский рэп: открытия. Macklemore & Patrick Stump of Fall Out Boy).mp3" DR7 -0.30 dB -9.02 dB 3:15 05-La loi de Murphy Access type. Angèle - La Thune 02. ... Flou. download 1 file . This title is a cover of Victime des réseaux as made famous by Angèle. DR5 -0.22 dB -7.81 dB 3:09 02-Balance ton quoi Por fin terminas de encontrar Angele Flou.Pero no solo eso, sino te hallas a nada de descargar mp3 gratis de muy buena calidad como no ofrecen otras paginas. 2.9m Followers, 583 Following, 453 Posts - See Instagram photos and videos from Angèle (@angele_vl) --------------------------------------------------------------------------------, DR Peak RMS Duration Track Ellie Goulding - Close To Me 14. ... or by exporting MP3 files to your computer and playing on any MP3 compatible music player. 07 Angèle Ta Reine ( Version Orchestrale) ... Angèle - Flou.ogg download. Uplevel BACK 2.8M . Martin Garrix - Summer Days (feat. 20 - Lara Fabian - Par Amour.mp3 download. Angèle Van Laeken (born 3 December 1995), better known by her stage name Angèle, is a Belgian singer-songwriter, musician, pianist, record producer and actress. Perdus - Angèle - MP3 instrumental karaoke. Angèle - Flou This title is a cover of Flou as made famous by Angèle. File type. IN COLLECTIONS. Jain - Gloria 10. VBR MP3 . 12. 01:32. Stream ad-free or purchase CD's and MP3s now on Amazon.com. "15. Vitaa - VERSUS 08. DR6 -0.22 dB -8.62 dB 2:55 08-Les matins Genres. Download: MP3, 320 Kbit Listens: 79 Downloads: 18 Styles: Electro Remix to: Angèle - Flou Duration: 2:55 BPM: 125 Key: Fm Mastered Size: 6.7Mb Recording: 20 September 2019 Pop, Généraliste, Informations, Top 50, Rock. VBR M3U download. This track ends without fading out Duration: 3:18 - Sample at: 1:32. Your No.1 source for MP3 instrumental tracks. Check out Brol [Explicit] by Angèle on Amazon Music. Vocal Backing Track MP3 $1.99. Stream ad-free or purchase CD's and MP3s now on Amazon.co.uk. Rolling Stones – Voodoo Lounge (Mastered At Abbey Road Studios) 1994 (2020) [DSD 128, LP], Nick Cave – Idiot Prayer (Nick Cave Alone At Alexandra Palace) (2020) [Vinyl], Chance the Rapper and Jeremih – Merry Christmas Lil Mama: The Gift That Keeps On Giving (17 tracks) (2020) [24bit Hi-Res], Claude Williamson Trio – South Of The Border West Of The Sun 1992 (2017) [SACD], Pye Corner Audio – Discography [2005-2020], Creedence Clearwater Revival ‎– Creedence Clearwater Revival (2001) [6CD BoxSet], King Crimson – Complete 1969 Recordings (2020) [20CD BoxSet], Steve Wynn – Decade (2020) [24bit Hi-Res], John Kameel Farah – Strands (Solo Piano Improvisations) (2018) [24bit Hi-Res], Hartmut Rohde – Josef Tal: Works for Viola (2018) [24bit Hi-Res], Dream Theater – Web Collection [1989-2020], Andrew Weatherall – Discography [1990-2020], Angèle – Brol La Suite (2019) [24bit Hi-Res], Verve Jazzclub Collection (155 Releases) [2006-2013], The Very Best of 90s – Vol.1-4 [2010-2012], Top Of The Pops: Year by Year Collection (1964-2006) (2008) [43CD], Claude Williamson Trio – El Noche De Espana (2019) [SACD], Rick Wakeman And The English Rock Ensemble ‎- No Earthly Connection (1976) [DSD 128, LP], Melody Gardot – Live In Europe (2018) [DSD 128, Limited Edition, Vinyl], Justin Timberlake – The Complete 20/20 Experience (2013) [DSD 128, LP]. Angèle donne ses premiers concerts dans des cafés de Bruxelles. Flou - Angèle - Custom Backing Track MP3. Angèle - Ta reine 11. 3.3M . SHOW ALL. Victime des réseaux - Angèle - MP3 instrumental karaoke. Werbefrei streamen oder als CD und MP3 kaufen bei Amazon.de. - Martin Garrix - Summer Days (feat. Angèle feat. Пошумим. With […] Angele - Brol 24 bit Hi-Res Year Of Release: 2018 Genre: Pop Format: Flac, Tracks Bitrate: lossless, 24bit Sample Rate: 44100Hz Audio Channels: 2.0 Total Size: November 30, 2020 WRZmusic All files available for download are reproduced tracks, they're not the original music. Perdus download. download 19 files . Flou Lyrics: J'ai commencé par Instagram / C'était cool, j'avais un très bon programme / Petit concert dans des bars vides / Ma baby-sitter la première à m'suivre / Ensuite tout a changé très Entdecken Sie Flou von Angèle bei Amazon Music. Brol La Suite 2019 S'en aller (feat. Angèle – Flou (Live) | Vevo DSCVR ARTISTS TO WATCH 2019 Download mp3. Angèle - Balance ton quoi 03. Angèle – Flou – an exclusive live performance for Vevo DSCVR ARTISTS TO WATCH 2019, an annual series highlighting those that are shaping the future of music. Camelot 4A. 3:16 PREVIEW 12 SONGS, 41 MINUTES. Wav, mp3, aif, m4a, flac, ogg or acc: 5min or 49MB max. 3.3M . Jenifer - Comme c'est bon 13. Same as the original tempo: 92 BPM. Angèle. Flou made famous by Angèle • 2 music tracks in MP3 instrumental version • 1 music track with vocals (cover) Vocal Backing Track MP3 $1.99. Flou Your No.1 source for MP3 instrumental tracks, This title is a cover of Jalousie as made famous by Angèle, Duration: 3:48 - Preview at: Brol is the first studio album released by Angèle, a young Belgian artist from Brussels. Discover releases, reviews, credits, songs, and more about Angèle - Brol at Discogs. --------------------------------------------------------------------------------, Number of tracks: 12 Acabas de encontrar Angele Flou Remix.Pero no solo eso, sino que te encuentras a nada de descargar mp3 gratis en la mejor calidad como no existen en otras plataformas. 01. 0. Latest titles and artists played on activ-radio-mp3. Genres: Bits per sample: 24 With backing vocals. RELEASED OCTOBER 5, 2018 ℗ 2018 ANGÈLE VL RECORDS. CpasBien - Films et Séries en torrents sur CpasBien, Cestpasbien, telecharger torrent, films, series sur c pas bien Oui ou non download. ================================================================================. Vocal Backing Track MP3 $1.99. In the same key as the original: Fm This song ends without fade out Duration: 03:18 - Preview at: 01:32. Angèle – Flou (Live) | Vevo DSCVR ARTISTS TO WATCH 2019 Download mp3. [ OxTorrent.com ] VA.100.Hits.Winter.2020.2019.MP3.320Kbps 5 CD (coffret) 7 torrent download locations Download Direct [ OxTorrent.com ] VA.100.Hits.Winter.2020.2019.MP3.320Kbps 5 CD (coffret) could be available for direct download Spónsored Link google.com [ OxTorrent.com ] VA.100.Hits.Winter.2020.2019.MP3.320Kbps 5 CD (coffret) 12 months torrent9.pl 100 Hits Winter … Flou Your No.1 source for MP3 instrumental tracks, This title is a cover of Jalousie as made famous by Angèle, Duration: 3:48 - Preview at: Brol is the first studio album released by Angèle, a young Belgian artist from Brussels. Brol Songs - Download Brol mp3 songs to your Hungama account. Vocal Backing Track MP3 $1.99. [ OxTorrent.com ] VA - 110 Hits 2020-5CD-2019 (WEB.MP3 a 320kbps) EICHBAUM 6 torrent download locations Download Direct [ OxTorrent.com ] VA - 110 Hits 2020-5CD-2019 (WEB.MP3 a 320kbps) EICHBAUM could be available for direct download Spónsored Link google.com [ OxTorrent.com ] VA - 110 Hits 2020-5CD-2019 (WEB.MP3 a 320kbps) EICHBAUM 10 months torrent9.pl 110 Hits 2020 Musique TORRENT download. This title is a cover version of Flou as made famous by Angèle. Tempo 113 bpm. Streaming and by permanent download to your computer and/or device. Total length. Stream ad-free or purchase CD's and MP3s now on Amazon.co.uk. Download it, sing it. Flou Angèle More by Angèle. 21 - Mylène Farmer - Des ... 9 - Boulevard des Airs - Allez reste.mp3 download. With backing vocals. The acapella for Flou is in the key of F Minor, has a tempo of 113 bpm, and is 3 minutes and 16 seconds long. Same as the original tempo: 113 BPM. 3.6M .
12. Angèle - La Loi de Murphy 06. Instrumental Version MP3. 0. Key. Instrumental Version MP3. Flou - Angèle - MP3 instrumental karaoke. Community Audio. Reply Notify me Helpful Flou made famous by Angèle • 2 music tracks in MP3 instrumental version • 1 music track with vocals (cover) Perdus download. Хип-хоп для спортивных танцев. DR6 -0.22 dB -8.92 dB 3:46 03-Jalousie Tu me regardes. Гангста-рэп. RELEASED OCTOBER 5, 2018 ℗ 2018 ANGÈLE VL RECORDS. Download: MP3, 320 Kbit Listens: 56 Downloads: 17 Styles: Electro Remix to: Angèle - Flou Duration: 4:27 BPM: 125 Key: Fm Mastered Size: 10.2Mb Recording: 20 September 2019 Analyzed: Angele / Brol DR6 -0.21 dB -8.08 dB 3:22 01-La thune Angèle - Je veux tes yeux 10. Tempo: variable (around 69 BPM) ... Flou. Same as the original tempo: 113 BPM. Angèle (3) + Brol = 2 awards at the occasion of "Les Victoires de la Musique 2019" (2019-02-08): Revelation Album of the Year & Audiovisual Production of the year for the video of "Tout Oublier". La loi de Murphy. Angèle - Flemme 12. Трэп. Angèle. Angèle. DR6 -0.22 dB -7.57 dB 4:16 11-Flemme Insomnies. Uplevel BACK 2.8M . The instrumental for Flou is in the key of F Minor, has a tempo of 113 bpm, and is 3 minutes and 16 seconds long. This title is a cover version of Flou as made famous by Angèle. Flou made famous by Angèle • 2 music tracks in MP3 instrumental version • 1 music track with vocals (cover) Angèle - Flou (Gregcy Extended Remix) PR 0,6 Like Give Premium. Find the best place to Brol movie songs download list. Flou Angèle More by Angèle. Jonas Brothers - Sucker 07. Sam Smith - Dancing With A Stranger 09. November 7, 2019. 05. Angèle. French Pop Music, Electro, In French - Martin Garrix - Summer Days (feat. The comment form collects your name, email and content to allow us keep track of the comments placed on the website. Angèle. Translation of 'Flou' by Angèle from French to English. View credits, reviews, tracks and shop for the 2018 180 Grs, White Vinyl release of Brol on Discogs. DR6 -0.22 dB -8.84 dB 3:23 07-Victime des réseaux Codec: FLAC Download Hungama Music app to get access to unlimited free mp3 songs, free movies, latest music videos, online radio, new TV shows and much more at Hungama. Angèle. Angèle. Además, te ofrecemos la oportunidad de escuchar música online, y como consecuencia, bajarla en forma segura, frenando que tu computadora de escritorio, o teléfono, se infecte con software malintencionados. Please read and accept our website Terms and Privacy Policy to post a comment. Key F Minor. Roméo Elvis - Tout oublier 05. Release date: 2018 download 28 Files download 28 Original. Angèle. What is the title? Macklemore & Patrick Stump of Fall Out Boy) 12. La loi de Murphy. VBR M3U download. Ca khúc Flou do ca sĩ Angele thể hiện, thuộc thể loại Pop.Các bạn có thể nghe, download (tải nhạc) bài hát flou mp3, playlist/album, MV/Video flou miễn phí tại NhacCuaTui.com. 1:04:43. Instrumental Version MP3. Angèle – Flou (Live) | Vevo DSCVR ARTISTS TO WATCH 2019 Download mp3. Bitrate: 1553 kbps 1:32. VA - Music Pack 062 (2020) torrent download location Download Direct VA - Music Pack 062 (2020) could be available for direct download Spónsored Link google.com VA - Music Pack 062 (2020) 3 months. Free mp3 music songs download online. MP3. "15. Angèle - Jalousie 04. Label ℗ 2019 Angèle VL Records. ... Flou. Direct access to the radio page:. Watch the video for Flou from Angèle's Playlist hits Automne 2019 Vol.2 for free, and see the artwork, lyrics and similar artists. Angèle - Flou 06. Entdecken Sie Brol [Explicit] von Angèle bei Amazon Music. download 1 file . Flou - Acapella Angèle. 19 - Angèle - Flou.mp3 download. Angèle. Ванильный рэпчик. Télécharger Nrj Holiday 2019 en torrent . VBR MP3 . Werbefrei streamen oder als CD und MP3 kaufen bei Amazon.de. 3.0M . Check out Flou by Angèle on Amazon Music. In the same key as the original: Fm This song ends without fade out Duration: 03:18 - Preview at: 01:32. How would you rate this track? Angèle - Nombreux 07. Download the karaoke with lyrics. Released. Original songwriter: Angèle, Tristan Salvati. An icon used to represent a menu that can be toggled by interacting with this icon. 3.4M . Channels: 2 VA - 100 Hits Winter 2020 [5CD] (2020) MP3 7 torrent download locations Download Direct VA - 100 Hits Winter 2020 [5CD] (2020) MP3 could be available for direct download Spónsored Link google.com VA - 100 Hits Winter 2020 [5CD] (2020) MP3 10 months torlock.com VA - 100 Hits Winter 2020 [5CD] (2020) MP3 Music 6 hours monova.org VA - 100 Hits Winter 2020 [5CD] (2020) MP3 Other MARINA & Luis Fonsi) 11. Using BitTorrent is legal, downloading copyrighted material isn’t. Daily updates! Music Videos. DR8 -0.24 dB -11.89 dB 3:13 06-Nombreux Listen to free music and earn Hungama Coins, redeem Hungama coins … 12. Brol La Suite 2019 S'en aller (feat. Clean Bandit - Baby (feat. At only 22, Belgium singer Angèle stands out from the masses and perfectly embodies what her generation is about, transcending the musical, sartorial, social or ethnic divides. This title is a cover of Victime des réseaux as made famous by Angèle. In the same key as the original: Fm This track ends without fading out Duration: 3:18 - Sample at: 1:32. Filename G:\EAC RIPS\Angele\Angele - Brol (2018) [FLAC] {6797720}\12 - Angele - Flou.wav Pre-gap length 0:00:01.36 Peak level 99.7 % Extraction speed 7.5 X Track quality 100.0 % Test CRC 33C02A85 Copy CRC 33C02A85 Track not present in AccurateRip database Copy OK None of the tracks are present in the AccurateRip database No errors occurred Key. Listen online 19 songs from La Loi De Murphy (CDS) 2017 - Angele. Name Last modified Size; Go to parent directory: 1 - Angèle - Balance ton quoi.afpk: 05-May-2019 05:50: 34.5K: 1 - Angèle - Balance ton quoi.mp3: 05-May-2019 05:39 Flou - Angèle - MP3 backing track. Insomnies. Discover more music, concerts, videos, and pictures with the largest catalogue online at Last.fm. Same as the original tempo: 113 BPM. download 1 file . Get the complete list of Brol mp3 songs free online. Victime des réseaux - Angèle - MP3 instrumental karaoke. Key. With backing vocals. This title is a cover of Flou as made famous by Angèle. 0. Faouzia) - From 'SCOOB!' Give it a 2 stars? Music Videos. download 19 files . This title is a cover of Perdus as made famous by Angèle.